[Login] or [Signup]
Login
Username:
Password:
[Signup]
[Recover Account]


Poll


You must be logged in to view polls



Torrent Details For "Manmarziyaan (2018) Hindi HQ pDVDRip x264 AAC 700MB - MovCr"

Manmarziyaan (2018) Hindi HQ pDVDRip x264 AAC 700MB - MovCr

Download this torrent | Magnet Download
Health:
Seeds: 1,920
Leechers: 747
Completed: 7,571 
Last Checked: 16-09-2018 18:03:04
External Torrent
Update Stats
Download Magnet


Poster


iMDB
Original Title: Manmarziyaan
Title: Husband Material
Year: 2018
Runtime: 156 minutes
Language: Hindi
All Genres: Romance
Director: Anurag Kashyap
Writing By: Kanika Dhillon,
Produced By: Kavan Ahalpara,Vikas Bahl,Kanika Dhillon,Kanupriya,Madhu Mantena Varma,Vikramaditya Motwane,Aanand L. Rai,Ajay Rai,Himanshu Sharma,
Music: Amit Trivedi
Cast:
Abhishek Bachchan as Robbie
Vicky Kaushal as Vicky
Tapsee Pannu as Rumi
Abdul Quadir Amin as Samar
Gaurav Amlani ">Gaurav Amlani as Raja
Ashnoor Kaur as
Saurabh Sachdeva as Kaka Ji
Sukhmani Sadana as Lovely Singh
Trailers:
Husband Material
Manmarziyaan trailer


Watch-Free-HD     Download

Details
Name:Manmarziyaan (2018) Hindi HQ pDVDRip x264 AAC 700MB - MovCr
Description:
Our Site   www.movcr.com


Manmarziyaan (2018) Hindi HQ pDVDRip x264 AAC 700MB - MovCr



 http://www.imdb.com/title/tt5474036/

 

General
Unique ID                                : 253821657389742720576941333596292631679 (0xBEF445E69C581B6E0708B0034F29CC7F)
Complete name                            : www.MovCr.com - Manmarziyaan (2018) Hindi HQ pDVDRip x264 AAC 700MB - MovCr.mkv
Format                                   : Matroska
Format version                           : Version 4 / Version 2
File size                                : 700 MiB
Duration                                 : 2 h 28 min
Overall bit rate                         : 661 kb/s
Movie name                               : www.MovCr.com
Encoded date                             : UTC 2018-09-14 17:43:58
Writing application                      : mkvmerge v26.0.0 ('In The Game') 64-bit
Writing library                          : libebml v1.3.6 + libmatroska v1.4.9

Video
ID                                       : 1
Format                                   : AVC
Format/Info                              : Advanced Video Codec
Format profile                           : [email protected]
Format settings                          : CABAC / 4 Ref Frames
Format settings, CABAC                   : Yes
Format settings, RefFrames               : 4 frames
Codec ID                                 : V_MPEG4/ISO/AVC
Duration                                 : 2 h 28 min
Bit rate                                 : 499 kb/s
Width                                    : 688 pixels
Height                                   : 300 pixels
Display aspect ratio                     : 2.25:1
Frame rate mode                          : Constant
Frame rate                               : 25.000 FPS
Color space                              : YUV
Chroma subsampling                       : 4:2:0
Bit depth                                : 8 bits
Scan type                                : Progressive
Bits/(Pixel*Frame)                       : 0.097
Stream size                              : 528 MiB (75%)
Title                                    : www.MovCr.com
Writing library                          : x264 core 148 r2708 86b7198
Encoding settings                        : cabac=1 / ref=1 / deblock=1:0:0 / analyse=0x1:0x111 / me=hex / subme=2 / psy=1 / psy_rd=1.00:0.00 / mixed_ref=0 / me_range=16 / chroma_me=1 / trellis=0 / 8x8dct=0 / cqm=0 / deadzone=21,11 / fast_pskip=1 / chroma_qp_offset=0 / threads=9 / lookahead_threads=2 / sliced_threads=0 / nr=0 / decimate=1 / interlaced=0 / bluray_compat=0 / constrained_intra=0 / bframes=3 / b_pyramid=2 / b_adapt=1 / b_bias=0 / direct=1 / weightb=1 / open_gop=0 / weightp=1 / keyint=250 / keyint_min=25 / scenecut=40 / intra_refresh=0 / rc_lookahead=10 / rc=abr / mbtree=1 / bitrate=499 / ratetol=1.0 / qcomp=0.60 / qpmin=0 / qpmax=69 / qpstep=4 / vbv_maxrate=20000 / vbv_bufsize=25000 / nal_hrd=none / filler=0 / ip_ratio=1.40 / aq=1:1.00
Language                                 : Hindi
Default                                  : Yes
Forced                                   : No
Color range                              : Limited
Color primaries                          : BT.601 PAL
Transfer characteristics                 : BT.709
Matrix coefficients                      : BT.601

Audio
ID                                       : 2
Format                                   : AAC
Format/Info                              : Advanced Audio Codec
Format profile                           : LC
Codec ID                                 : A_AAC-2
Duration                                 : 2 h 28 min
Bit rate                                 : 160 kb/s
Channel(s)                               : 2 channels
Channel positions                        : Front: L R
Sampling rate                            : 48.0 kHz
Frame rate                               : 46.875 FPS (1024 SPF)
Compression mode                         : Lossy
Delay relative to video                  : -21 ms
Stream size                              : 170 MiB (24%)
Title                                    : www.MovCr.com
Language                                 : Hindi
Default                                  : Yes
Forced                                   : No



 
 
 
 
 
 
 
 
 
Category:Movies > Bollywood
Lang:Hindi
Total Size:700.07 MB
Info Hash:7285bc916b982bbd85dd73eb73df5462016c92b8
Added By:MAZE
Date Added:14-09-2018 18:52:39
Views:993
Hits:98

Download Torrent

Ratings:Not Yet Rated (Log in to rate it)


Tracker:
udp://tracker.coppersurfer.tk:6969/announce


File List: 


Comments

No comments still posted

Powered by 10 Hamsters v2-svn -|- Page Generated In 1.598679 secs.
-|- RSS FEED
Theme By: Nikkbu