[Login] or [Signup]
Login
Username:
Password:
[Signup]
[Recover Account]


Poll


You must be logged in to view polls



Torrent Details For "Suitcase(2018) Bangla Movie 720p - DTHRip[H.264 - AAC3(5.1Ch)]"

Suitcase(2018) Bangla Movie 720p - DTHRip[H.264 - AAC3(5.1Ch)]

Download this torrent | Magnet Download
Health:
Seeds: 0
Leechers: 0
Completed:
Last Checked: 14-09-2018 16:03:17
External Torrent
Update Stats
Download Magnet


Poster


Watch-Free-HD     Download

Details
Name:Suitcase(2018) Bangla Movie 720p - DTHRip[H.264 - AAC3(5.1Ch)]
Description:


[size="200"]posttitle[/size]


[color='fuchsia'][size='medium']http://www.imdb.com/title/tt6562740/[/size][/color]




[code]
General
Complete name                            : Suitcase(2018) Bangla  Movie 720p - DTHRip[x264 - AC3(5.1Ch)].mp4
Format                                   : MPEG-4
Format profile                           : Base Media
Codec ID                                 : isom (isom/iso2/avc1/mp42)
File size                                : 711 MiB
Duration                                 : 2 h 19 min
Overall bit rate                         : 711 kb/s
Writing application                      : Lavf55.33.100
Video
ID                                       : 1
Format                                   : AVC
Format/Info                              : Advanced Video Codec
Format profile                           : [email protected]
Format settings                          : CABAC / 4 Ref Frames
Format settings, CABAC                   : Yes
Format settings, RefFrames               : 4 frames
Codec ID                                 : avc1
Codec ID/Info                            : Advanced Video Coding
Duration                                 : 2 h 19 min
Bit rate                                 : 512 kb/s
Width                                    : 720 pixels
Height                                   : 360 pixels
Display aspect ratio                     : 2.000
Frame rate mode                          : Constant
Frame rate                               : 30.000 FPS
Color space                              : YUV
Chroma subsampling                       : 4:2:0
Bit depth                                : 8 bits
Scan type                                : Progressive
Bits/(Pixel*Frame)                       : 0.066
Stream size                              : 511 MiB (72%)
Writing library                          : x264 core 132
Encoding settings                        : cabac=1 / ref=1 / deblock=1:0:0 / analyse=0x3:0x113 / me=hex / subme=2 / psy=1 / psy_rd=1.00:0.00 / mixed_ref=0 / me_range=16 / chroma_me=1 / trellis=1 / 8x8dct=1 / cqm=0 / deadzone=21,11 / fast_pskip=1 / chroma_qp_offset=0 / threads=4 / lookahead_threads=1 / sliced_threads=0 / nr=0 / decimate=1 / interlaced=0 / bluray_compat=0 / constrained_intra=0 / bframes=2 / b_pyramid=2 / b_adapt=1 / b_bias=0 / direct=1 / weightb=1 / open_gop=0 / weightp=1 / keyint=25 / keyint_min=13 / scenecut=40 / intra_refresh=0 / rc_lookahead=1 / rc=abr / mbtree=1 / bitrate=512 / ratetol=0.1 / qcomp=0.60 / qpmin=1 / qpmax=35 / qpstep=2 / ip_ratio=1.40 / aq=1:1.00
Audio
ID                                       : 2
Format                                   : AAC
Format/Info                              : Advanced Audio Codec
Format profile                           : LC
Codec ID                                 : mp4a-40-2
Duration                                 : 2 h 19 min
Bit rate mode                            : Constant
Bit rate                                 : 192 kb/s
Channel(s)                               : 2 channels
Channel positions                        : Front: L R
Sampling rate                            : 44.1 kHz
Frame rate                               : 43.066 FPS (1024 SPF)
Compression mode                         : Lossy
Stream size                              : 192 MiB (27%)
Default                                  : Yes
Alternate group                          : 1
[/code]















Category:Movies > Bengali
Lang:Bengali  Bengali
Total Size:710.75 MB
Info Hash:e8d085f22846f0950b56ea55f160c051000c0e32
Added By:nlpmovie
Date Added:14-09-2018 14:28:02
Views:259
Hits:11

Download Torrent

Ratings:Not Yet Rated (Log in to rate it)

  


Tracker:
udp://tracker.coppersurfer.tk:6969/announce


File List: 


Comments

No comments still posted

Powered by 10 Hamsters v2-svn -|- Page Generated In 0.830863 secs.
-|- RSS FEED
Theme By: Nikkbu