[Login] or [Signup]
Login
Username:
Password:
[Signup]
[Recover Account]


Poll


You must be logged in to view polls



Torrent Details For "Genius (2018) Hindi HQ HDRip - x264 - 700MB - ESubs - MovCr"

Genius (2018) Hindi HQ HDRip - x264 - 700MB - ESubs - MovCr

Download this torrent | Magnet Download
Health:
Seeds: 989
Leechers: 702
Completed: 2,284 
Last Checked: 14-09-2018 21:26:51
External Torrent
Update Stats
Download Magnet


Poster


iMDB
Title: Genius
Year: 2018
Runtime: 165 minutes
Language: Hindi
All Genres: Action, Thriller
Tagline: Dil Ki Ladaai Dimaag Se
Director: Anil Sharma
Writing By: Anil Sharma,Anil Sharma,Sunil Sirvaiya,Amjad Ali,
Produced By: Harsh Dave,Deepak Mukut,Sunil Sharma,
Music: Monty Sharma
Cast:
Utkarsh Sharma as Vasudev Shastri (Vasu / Genius)
Ishita Chauhan as Nandini Chouhan
Mithun Chakraborty as Jai Shankar Prasad
Ayesha Jhulka as Nandini's Mother
Nawazuddin Siddiqui as MRS (Mr Sabhar Khan)
Malti Chahar as RAW agent
Dev Gill as Rajiv ranjan
Zakir Hussain as Minister
Muni Jha as Pujari Baba
Rajiv Kachroo as Jason
Trailers:
Genius Trailer


Watch-Free-HD     Download

Details
Name:Genius (2018) Hindi HQ HDRip - x264 - 700MB - ESubs - MovCr
Description:
Our Site   www.movcr.com


Genius (2018) Hindi HQ HDRip - x264 - 700MB - ESubs - MovCr


 http://www.imdb.com/title/tt7722258/

 

General
Unique ID                                : 192472843269649296975249245654738961163 (0x90CCEBD5F45B653E9D1D21DBD862830B)
Complete name                            : www.MovCr.com - Genius (2018) Hindi HQ HDRip - x264 - 700MB - ESubs - MovCr.mkv
Format                                   : Matroska
Format version                           : Version 4 / Version 2
File size                                : 714 MiB
Duration                                 : 2 h 26 min
Overall bit rate                         : 680 kb/s
Movie name                               : www.MovCr.com
Encoded date                             : UTC 2018-09-14 09:54:21
Writing application                      : mkvmerge v26.0.0 ('In The Game') 64-bit
Writing library                          : libebml v1.3.6 + libmatroska v1.4.9

Video
ID                                       : 1
Format                                   : AVC
Format/Info                              : Advanced Video Codec
Format profile                           : [email protected]
Format settings                          : CABAC / 8 Ref Frames
Format settings, CABAC                   : Yes
Format settings, RefFrames               : 8 frames
Codec ID                                 : V_MPEG4/ISO/AVC
Duration                                 : 2 h 26 min
Bit rate                                 : 597 kb/s
Width                                    : 720 pixels
Height                                   : 340 pixels
Display aspect ratio                     : 2.112
Frame rate mode                          : Constant
Frame rate                               : 60.000 FPS
Color space                              : YUV
Chroma subsampling                       : 4:2:0
Bit depth                                : 8 bits
Scan type                                : Progressive
Bits/(Pixel*Frame)                       : 0.041
Stream size                              : 626 MiB (88%)
Title                                    : www.MovCr.com
Writing library                          : x264 core 155 r2901 7d0ff22
Encoding settings                        : cabac=1 / ref=8 / deblock=1:0:0 / analyse=0x3:0x133 / me=umh / subme=9 / psy=1 / psy_rd=1.00:0.00 / mixed_ref=1 / me_range=16 / chroma_me=1 / trellis=2 / 8x8dct=1 / cqm=0 / deadzone=21,11 / fast_pskip=1 / chroma_qp_offset=-2 / threads=11 / lookahead_threads=1 / sliced_threads=0 / nr=0 / decimate=1 / interlaced=0 / bluray_compat=0 / constrained_intra=0 / bframes=3 / b_pyramid=2 / b_adapt=2 / b_bias=0 / direct=3 / weightb=1 / open_gop=0 / weightp=2 / keyint=600 / keyint_min=60 / scenecut=40 / intra_refresh=0 / rc_lookahead=60 / rc=2pass / mbtree=1 / bitrate=597 / ratetol=1.0 / qcomp=0.60 / qpmin=0 / qpmax=69 / qpstep=4 / cplxblur=20.0 / qblur=0.5 / vbv_maxrate=62500 / vbv_bufsize=78125 / nal_hrd=none / filler=0 / ip_ratio=1.40 / aq=1:1.00
Language                                 : Hindi
Default                                  : Yes
Forced                                   : No
Color range                              : Limited
Color primaries                          : BT.709
Transfer characteristics                 : BT.709
Matrix coefficients                      : BT.709

Audio
ID                                       : 2
Format                                   : AAC
Format/Info                              : Advanced Audio Codec
Format profile                           : HE-AAC / LC
Format settings                          : NBC
Codec ID                                 : A_AAC-5
Duration                                 : 2 h 26 min
Bit rate                                 : 80.0 kb/s
Channel(s)                               : 2 channels
Channel positions                        : Front: L R
Sampling rate                            : 48.0 kHz / 24.0 kHz
Frame rate                               : 23.438 FPS (1024 SPF)
Compression mode                         : Lossy
Stream size                              : 83.9 MiB (12%)
Title                                    : www.MovCr.com
Language                                 : Hindi
Default                                  : Yes
Forced                                   : No





 
 
 
 
 
 
 
Category:Movies > Bollywood
Lang:Hindi
Total Size:713.95 MB
Info Hash:39b8e743c7c0b1a4993984282aebcdca469ba69a
Added By:MAZE
Date Added:14-09-2018 11:12:03
Views:788
Hits:210

Download Torrent

Ratings:Not Yet Rated (Log in to rate it)


Tracker:
udp://tracker.coppersurfer.tk:6969/announce


File List: 


Comments

No comments still posted

Powered by 10 Hamsters v2-svn -|- Page Generated In 1.073394 secs.
-|- RSS FEED
Theme By: Nikkbu