[Login] or [Signup]
Login
Username:
Password:
[Signup]
[Recover Account]


Poll


You must be logged in to view polls



Torrent Details For "Genius 2018 x264 720p HD Hindi GOPISAHI"

Genius 2018 x264 720p HD Hindi GOPISAHI

Download this torrent | Magnet Download
Health:
Seeds: 0
Leechers: 0
Completed:
Last Checked: 14-09-2018 10:57:01
External Torrent
Update Stats
Download Magnet


Poster
No poster


Watch-Free-HD     Download

Details
Name:Genius 2018 x264 720p HD Hindi GOPISAHI
Description:
 http://www.gopisahi.pw/

Format                         : Matroska
Format version                 : Version 4 / Version 2
File size                      : 839 MiB
Duration                       : 2 h 26 min
Overall bit rate               : 800 kb/s
Movie name                     : Genius 2018 GOPISAHI

Format                         : AVC
Format/Info                    : Advanced Video Codec
Codec ID                       : V_MPEG4/ISO/AVC
Duration                       : 2 h 26 min
Bit rate                       : 699 kb/s
Width                          : 1 278 pixels
Height                         : 600 pixels
Display aspect ratio           : 2.40:1
Original display aspect ratio  : 2.40:1
Frame rate mode                : Constant
Frame rate                     : 60.000 FPS
Color space                    : YUV
Chroma subsampling             : 4:2:0
Bit depth                      : 8 bits
Scan type                      : Progressive
Bits/(Pixel*Frame)             : 0.015
Stream size                    : 733 MiB (87%)
Title                          : GOPISAHI
Writing library                : x264 core 155 r2901 7d0ff22

Audio
Format                         : AAC
Duration                       : 2 h 26 min
Bit rate                       : 96.0 kb/s
Channel(s)                     : 2 channels
Channel positions              : Front: L R
Sampling rate                  : 48.0 kHz
Frame rate                     : 46.875 FPS (1024 SPF)
Compression mode               : Lossy
Delay relative to video        : -19 ms
Stream size                    : 101 MiB (12%)
Title                          : GOPISAHI
Language                       : Hindi


Category:Movies > Bollywood
Lang:Hindi
Total Size:838.98 MB
Info Hash:f121c80ee3721b79fa6dea6a9385e8d8c6733a20
Added By:gopisahi
Date Added:14-09-2018 10:57:01
Views:278
Hits:43

Download Torrent

Ratings:Not Yet Rated (Log in to rate it)


Tracker:
udp://tracker.torrent.eu.org:451/announce

This Torrent also has backup trackers
URLSeedersLeechersCompleted
http://retracker.spb.ru:80/announce000
http://t.nyaatracker.com:80/announce000
http://retracker.mgts.by:80/announce000
http://tracker2.itzmx.com:6961/announce000


File List: 


Comments

No comments still posted

Powered by 10 Hamsters v2-svn -|- Page Generated In 0.273453 secs.
-|- RSS FEED
Theme By: Nikkbu