[Login] or [Signup]
Login
Username:
Password:
[Signup]
[Recover Account]


Poll


You must be logged in to view polls



Torrent Details For "Surya- The Brave Soldier (Naa Peru Surya2018) Hindi Dubbed F Movie 720p - DTHRip[x264 - AC3(5.1..."

Surya- The Brave Soldier (Naa Peru Surya2018) Hindi Dubbed F Movie 720p - DTHRip[x264 - AC3(5.1...

Download this torrent | Magnet Download
Health:
Seeds: 3
Leechers: 4
Completed:
Last Checked: 12-09-2018 10:22:30
External Torrent
Update Stats
Download Magnet


Poster


Watch-Free-HD     Download

Details
Name:Surya- The Brave Soldier (Naa Peru Surya2018) Hindi Dubbed F Movie 720p - DTHRip[x264 - AC3(5.1...
Description:


[size="200"]Surya- The Brave Soldier (Naa Peru Surya2018) Hindi Dubbed F Movie 720p - DTHRip[x264 - AC3(5.1Ch)][/size]


[color='fuchsia'][size='medium']http://www.imdb.com/title/tt7794524/[/size][/color]




[code]
General
Complete name                            : Surya- The Brave Soldier (Naa Peru Surya2018) Hindi Dubbed F Movie 720p - DTHRip[x264 - AC3(5.1Ch)].mp4
Format                                   : MPEG-4
Format profile                           : Base Media
Codec ID                                 : isom (isom/iso2/avc1/mp42)
File size                                : 1.20 GiB
Duration                                 : 3 h 5 min
Overall bit rate mode                    : Variable
Overall bit rate                         : 929 kb/s
Writing application                      : Lavf55.33.100
Video
ID                                       : 1
Format                                   : AVC
Format/Info                              : Advanced Video Codec
Format profile                           : [email protected]
Format settings                          : CABAC / 4 Ref Frames
Format settings, CABAC                   : Yes
Format settings, RefFrames               : 4 frames
Codec ID                                 : avc1
Codec ID/Info                            : Advanced Video Coding
Duration                                 : 3 h 5 min
Bit rate                                 : 768 kb/s
Width                                    : 720 pixels
Height                                   : 480 pixels
Display aspect ratio                     : 3:2
Frame rate mode                          : Constant
Frame rate                               : 25.000 FPS
Color space                              : YUV
Chroma subsampling                       : 4:2:0
Bit depth                                : 8 bits
Scan type                                : Progressive
Bits/(Pixel*Frame)                       : 0.089
Stream size                              : 1 016 MiB (83%)
Writing library                          : x264 core 132
Encoding settings                        : cabac=1 / ref=1 / deblock=1:0:0 / analyse=0x3:0x113 / me=hex / subme=2 / psy=1 / psy_rd=1.00:0.00 / mixed_ref=0 / me_range=16 / chroma_me=1 / trellis=1 / 8x8dct=1 / cqm=0 / deadzone=21,11 / fast_pskip=1 / chroma_qp_offset=0 / threads=4 / lookahead_threads=1 / sliced_threads=0 / nr=0 / decimate=1 / interlaced=0 / bluray_compat=0 / constrained_intra=0 / bframes=2 / b_pyramid=2 / b_adapt=1 / b_bias=0 / direct=1 / weightb=1 / open_gop=0 / weightp=1 / keyint=25 / keyint_min=13 / scenecut=40 / intra_refresh=0 / rc_lookahead=1 / rc=abr / mbtree=1 / bitrate=768 / ratetol=0.1 / qcomp=0.60 / qpmin=1 / qpmax=35 / qpstep=2 / ip_ratio=1.40 / aq=1:1.00
Audio
ID                                       : 2
Format                                   : AAC
Format/Info                              : Advanced Audio Codec
Format profile                           : LC
Codec ID                                 : mp4a-40-2
Duration                                 : 3 h 5 min
Bit rate mode                            : Variable
Bit rate                                 : 155 kb/s
Maximum bit rate                         : 320 kb/s
Channel(s)                               : 2 channels
Channel positions                        : Front: L R
Sampling rate                            : 44.1 kHz
Frame rate                               : 43.066 FPS (1024 SPF)
Compression mode                         : Lossy
Stream size                              : 205 MiB (17%)
Default                                  : Yes
Alternate group                          : 1
[/code]















Category:Movies > Tamil
Lang:Hindi
Total Size:1.20 GB
Info Hash:e35f98f45227e850b47ea326f18bf6279ccb3ab4
Added By:nlpmovie
Date Added:11-09-2018 18:55:49
Views:424
Hits:58

Download Torrent

Ratings:Not Yet Rated (Log in to rate it)

  


Tracker:
udp://tracker.coppersurfer.tk:6969/announce


File List: 


Comments

<< Previous      Next >>
1 - 1

[Report] Posted: 12-09-2018 at 10:29:54
pashupati



Uploaded: 0.00 B
Downloaded: 0.00 B
Ratio: ---

hws the sound

1 - 1
<< Previous      Next >>


Powered by 10 Hamsters v2-svn -|- Page Generated In 0.837778 secs.
-|- RSS FEED
Theme By: Nikkbu