[Login] or [Signup]
Login
Username:
Password:
[Signup]
[Recover Account]


Poll


You must be logged in to view polls



Torrent Details For "Kuch Bheege Alfaaz 2018 Hindi 720p NF WEB-DL x264 ESub [MW]"

Kuch Bheege Alfaaz 2018 Hindi 720p NF WEB-DL x264 ESub [MW]

Download this torrent | Magnet Download
Health:
Seeds: 255
Leechers: 20
Completed: 10,035 
Last Checked: 18-09-2018 12:27:06
External Torrent
Update Stats
Download Magnet


Poster


iMDB
Title: Kuchh Bheege Alfaaz
Year: 2018
Runtime: 116 minutes
Language: Hindi
All Genres: Romance
Director: Onir
Writing By: Abhishek Chatterjee,
Produced By: Rahul Bhanja,Siddharth Anand Kumar,Shoaib Lokhandwala,Vikram Mehra,Gaurav Sharma,Sahil Sharma,
Music: Shashwat Srivastava
Cast:
Geetanjali Thapa as Archana Pradhan
Zain Khan Durrani as Alfaaz
Shray Rai Tiwari as Apu Khandelwal
Mona Ambegaonkar as Aruna Pradhan
Saheb Bhattacharjee as Partho
Chandrayee Ghosh as Priyanka
Sourav Das as Tony Baby
Debopriya as Naren
Sahil Agarwal as Kaushal
Shefali Chauhan as Chhavi
Trailers:
Official Trailer - Kuchh Bheege Alfaaz


Watch-Free-HD     Download

Details
Name:Kuch Bheege Alfaaz 2018 Hindi 720p NF WEB-DL x264 ESub [MW]
Description:

 


General
Format                                   : Matroska
Format version                           : Version 4 / Version 2
File size                                : 884 MiB
Duration                                 : 1 h 50 min
Overall bit rate                         : 1 119 kb/s

Video
ID                                       : 1
Format                                   : AVC
Format/Info                              : Advanced Video Codec
Format profile                           : [email protected]
Format settings                          : CABAC / 4 Ref Frames
Format settings, CABAC                   : Yes
Format settings, RefFrames               : 4 frames
Codec ID                                 : V_MPEG4/ISO/AVC
Duration                                 : 1 h 50 min
Bit rate                                 : 1 000 kb/s
Width                                    : 1 280 pixels
Height                                   : 572 pixels
Display aspect ratio                     : 2.25:1
Frame rate mode                          : Constant
Frame rate                               : 24.000 FPS
Color space                              : YUV
Chroma subsampling                       : 4:2:0
Bit depth                                : 8 bits
Scan type                                : Progressive
Bits/(Pixel*Frame)                       : 0.057
Stream size                              : 781 MiB (88%)
Writing library                          : x264 core 155 r2901 7d0ff22
Default                                  : Yes
Forced                                   : No

Audio
ID                                       : 2
Format                                   : AAC
Format/Info                              : Advanced Audio Codec
Format profile                           : LC
Codec ID                                 : A_AAC-2
Duration                                 : 1 h 50 min
Bit rate                                 : 128 kb/s
Channel(s)                               : 2 channels
Channel positions                        : Front: L R
Sampling rate                            : 48.0 kHz
Frame rate                               : 46.875 FPS (1024 SPF)
Compression mode                         : Lossy
Stream size                              : 101 MiB (11%)
Language                                 : Hindi
Default                                  : Yes
Forced                                   : No

Text
ID                                       : 3
Format                                   : UTF-8
Codec ID                                 : S_TEXT/UTF8
Codec ID/Info                            : UTF-8 Plain Text
Duration                                 : 1 h 45 min
Bit rate                                 : 48 b/s
Count of elements                        : 1311
Stream size                              : 37.6 KiB (0%)
Language                                 : English
Default                                  : Yes
Forced                                   : No


 http://pichub.site/image/DV7fV
 http://pichub.site/image/DVcrN
 http://pichub.site/image/DVVCT
 http://pichub.site/image/DVy7Z
 http://pichub.site/image/DVkWD
 http://pichub.site/image/DVCNg

Category:Movies > Bollywood
Lang:Hindi
Total Size:884.02 MB
Info Hash:89929fd6f66f55cb742a3f4c20df5ec0229150c0
Added By:Freaky
Date Added:02-09-2018 12:26:39
Views:5,909
Hits:405

Download Torrent

Ratings:Not Yet Rated (Log in to rate it)


Tracker:
udp://tracker.coppersurfer.tk:6969/announce


File List: 


Comments

No comments still posted

Powered by 10 Hamsters v2-svn -|- Page Generated In 0.156337 secs.
-|- RSS FEED
Theme By: Nikkbu