[Login] or [Signup]
Login
Username:
Password:
[Signup]
[Recover Account]


Poll


You must be logged in to view polls



Torrent Details For "Ant-Man and the Wasp 2018 1080p HDTC x264 [MW]"

Ant-Man and the Wasp 2018 1080p HDTC x264 [MW]

Download this torrent | Magnet Download
Health:
Seeds: 3,850
Leechers: 544
Completed: 231,371 
Last Checked: 11-09-2018 19:59:53
External Torrent
Update Stats
Download Magnet


Poster


iMDB
Imdb Picture Title: Ant-Man and the Wasp
Year: 2018
Runtime: 118 minutes
Votes: 7296
Rating: 7.8/10
Language: English
Country: USA
All Genres: Action, Adventure, Sci-Fi
Plot Outline: In the aftermath of 'Captain America: Civil War,' Scott Lang grapples with the consequences of his choices as both a Super Hero and a father. As he struggles to re-balance his home life with his responsibilities as Ant-Man, he's confronted by Hope van Dyne and Dr. Hank Pym with an urgent new mission. Scott must once again put on the suit and learn to fight alongside The Wasp as the team works together to uncover secrets from their past. Written by Walt Disney Studios


Tagline: Real heroes. Not actual size.
Director: Peyton Reed
Writing By: Chris McKenna,Erik Sommers,Paul Rudd,Andrew Barrer,Gabriel Ferrari,
Produced By: Victoria Alonso,Mitchell Bell,Stephen Broussard,Louis D'Esposito,Kevin Feige,Stan Lee,Charles Newirth,Laura Stoltz,Lars P. Winther,Kevin R. Wright,
Music: Christophe Beck
Cast:
Paul Rudd as Scott Lang / Ant-Man
Evangeline Lilly as Hope Van Dyne / Wasp
Michael Peña as Luis
Walton Goggins as Sonny Burch
Bobby Cannavale as Paxton
Judy Greer as Maggie
T.I. as Dave
David Dastmalchian as Kurt
Hannah John-Kamen as Ava / Ghost
Abby Ryder Fortson as Cassie
Trailers:
"Fun" TV Spot
Official Trailer
Teaser Trailer


Watch-Free-HD     Download

Details
Name:Ant-Man and the Wasp 2018 1080p HDTC x264 [MW]
Description:

 


General
Format                                   : Matroska
Format version                           : Version 4 / Version 2
File size                                : 1.60 GiB
Duration                                 : 1 h 47 min
Overall bit rate                         : 2 128 kb/s

Video
ID                                       : 1
Format                                   : AVC
Format/Info                              : Advanced Video Codec
Format profile                           : [email protected]
Format settings                          : CABAC / 4 Ref Frames
Format settings, CABAC                   : Yes
Format settings, RefFrames               : 4 frames
Codec ID                                 : V_MPEG4/ISO/AVC
Duration                                 : 1 h 47 min
Bit rate                                 : 2 000 kb/s
Width                                    : 1 920 pixels
Height                                   : 840 pixels
Display aspect ratio                     : 2.25:1
Frame rate mode                          : Constant
Frame rate                               : 23.976 (24000/1001) FPS
Color space                              : YUV
Chroma subsampling                       : 4:2:0
Bit depth                                : 8 bits
Scan type                                : Progressive
Bits/(Pixel*Frame)                       : 0.052
Stream size                              : 1.50 GiB (94%)
Writing library                          : x264 core 155 r2901 7d0ff22
Default                                  : Yes
Forced                                   : No

Audio
ID                                       : 2
Format                                   : AAC
Format/Info                              : Advanced Audio Codec
Format profile                           : LC
Codec ID                                 : A_AAC-2
Duration                                 : 1 h 47 min
Bit rate                                 : 129 kb/s
Channel(s)                               : 2 channels
Channel positions                        : Front: L R
Sampling rate                            : 48.0 kHz
Frame rate                               : 46.875 FPS (1024 SPF)
Compression mode                         : Lossy
Stream size                              : 99.0 MiB (6%)
Language                                 : English
Default                                  : Yes
Forced                                   : No


 http://pichub.site/image/D4Gob
 http://pichub.site/image/D4uiy
 http://pichub.site/image/D4Nb0
 http://pichub.site/image/D4vcV
 http://pichub.site/image/D4xUT
 http://pichub.site/image/D409N

Category:Movies > Pre-Releases
Lang:English  English
Total Size:1.60 GB
Info Hash:e46209d6d7b0c09e26cd6beaf380b55d0452ac83
Added By:Freaky
Date Added:30-08-2018 18:46:09
Views:4,639
Hits:318

Download Torrent

Ratings:Not Yet Rated (Log in to rate it)


Tracker:
udp://tracker.coppersurfer.tk:6969/announce


File List: 


Comments

<< Previous      Next >>
1 - 1

[Report] Posted: 08-09-2018 at 11:48:29
Sudhz



Uploaded: 0.00 B
Downloaded: 0.00 B
Ratio: ---

What about audio quality? Is it watchable?

1 - 1
<< Previous      Next >>


Powered by 10 Hamsters v2-svn -|- Page Generated In 0.155969 secs.
-|- RSS FEED
Theme By: Nikkbu