[Login] or [Signup]
Login
Username:
Password:
[Signup]
[Recover Account]


Poll


You must be logged in to view polls



Torrent Details For "Dil Jo Na Keh Saka 2017 Hindi 720p DTHRip x264 AAC { TaRa }.mkv"

Dil Jo Na Keh Saka 2017 Hindi 720p DTHRip x264 AAC { TaRa }.mkv

Download this torrent | Magnet Download
Health:
Seeds: 253
Leechers: 288
Completed: 276 
Last Checked: 20-08-2018 04:16:16
External Torrent
Update Stats
Download Magnet


Poster


iMDB
Title: Dil Jo Na Keh Saka
Year: 2017
Language: Hindi
All Genres: Romance
Director: Naresh Lalwani
Writing By: Sanjay Chauhan,Naresh Lalwani,
Produced By: Anil Anand,Naresh Lalwani,Vinay G. Rai,
Music: Shail Hada Pritesh Mehta
Cast:
Deepika Amin as
Swati Bakshi as
Priya Banerjee as
Farida Dadi as
Kenneth Desai as
Diksha Juneja as
Himansh Kohli as
Jashan Singh Kohli as
Bhuvnesh Mam as
Manoj Pahwa as


Watch-Free-HD     Download

Details
Name:Dil Jo Na Keh Saka 2017 Hindi 720p DTHRip x264 AAC { TaRa }.mkv
Description:

Dil Jo Na Keh Saka 2017 Hindi 720p DTHRip x264 AAC { TaRa }.mkv
 

===================================================================
General
Complete name               : Dil Jo Na Keh Saka 2017 Hindi 720p DTHRip x264 AAC { TaRa }.mkv
Format                      : Matroska
Format version              : Version 4 / Version 2
File size                   : 1.11 GiB
Duration                    : 2h 4mn
Overall bit rate            : 1 274 Kbps
===================================================================
Video
ID                          : 1
Format                      : AVC
Format/Info                 : Advanced Video Codec
Format profile              : [email protected]
Format settings, CABAC      : Yes
Format settings, ReFrames   : 5 frames
Codec ID                    : V_MPEG4/ISO/AVC
Duration                    : 2h 4mn
Bit rate                    : 1 152 Kbps
Width                       : 1 280 pixels
Height                      : 544 pixels
Display aspect ratio        : 2.35:1
Frame rate mode             : Constant
Frame rate                  : 50.000 fps
Color space                 : YUV
Chroma subsampling          : 4:2:0
Bit depth                   : 8 bits
Scan type                   : Progressive
Bits/(Pixel*Frame)          : 0.033
Stream size                 : 1 021 MiB (90%)
Title                       : .....::::: TaRa :::::.....
Language                    : Hindi
Default                     : Yes
Forced                      : No
===================================================================
Audio
ID                          : 2
Format                      : AAC
Format/Info                 : Advanced Audio Codec
Format profile              : HE-AAC / LC
Codec ID                    : A_AAC
Duration                    : 2h 4mn
Bit rate                    : 128 Kbps
Channel(s)                  : 2 channels
Channel positions           : Front: L R
Sampling rate               : 44.1 KHz / 22.05 KHz
Frame rate                  : 21.533 fps (1024 spf)
Compression mode            : Lossy
Delay relative to video     : 33ms
Stream size                 : 114 MiB (10%)
Title                       : .....::::: TaRa :::::.....
Language                    : Hindi
Default                     : Yes
Forced                      : No
===================================================================


 
 
 
 
 
 
 
 
 
 
 
 
 
 
 
 












 



Category:Movies > Bollywood
Lang:Hindi
Total Size:1.11 GB
Info Hash:e217874d9e871799e57a46b536a5c66043e97eb4
Added By:SkTaRa
Date Added:19-08-2018 16:21:05
Views:997
Hits:150

Download Torrent

Ratings:Not Yet Rated (Log in to rate it)

  


Tracker:
udp://tracker.coppersurfer.tk:6969/announce

This Torrent also has backup trackers
URLSeedersLeechersCompleted
http://t.nyaatracker.com:80/announce562
http://220xd.site/t/announce000


File List: 


Comments

No comments still posted

Powered by 10 Hamsters v2-svn -|- Page Generated In 3.180974 secs.
-|- RSS FEED
Theme By: Nikkbu