[Login] or [Signup]
Login
Username:
Password:
[Signup]
[Recover Account]


Poll


You must be logged in to view polls



Torrent Details For "Dil.Jo.Na.KeH.Saka.(2017).True.HDTV.720p.Hindi.H264.DD.5.1.-.LatestHDMovies"

Dil.Jo.Na.KeH.Saka.(2017).True.HDTV.720p.Hindi.H264.DD.5.1.-.LatestHDMovies

Download this torrent | Magnet Download
Health:
Seeds: 0
Leechers: 0
Completed:
Last Checked: 19-08-2018 15:56:40
External Torrent
Update Stats
Download Magnet


Poster


iMDB
Title: Dil Jo Na Keh Saka
Year: 2017
Language: Hindi
All Genres: Romance
Director: Naresh Lalwani
Writing By: Sanjay Chauhan,Naresh Lalwani,
Produced By: Anil Anand,Naresh Lalwani,Vinay G. Rai,
Music: Shail Hada Pritesh Mehta
Cast:
Deepika Amin as
Swati Bakshi as
Priya Banerjee as
Farida Dadi as
Kenneth Desai as
Diksha Juneja as
Himansh Kohli as
Jashan Singh Kohli as
Bhuvnesh Mam as
Manoj Pahwa as


Watch-Free-HD     Download

Details
Name:Dil.Jo.Na.KeH.Saka.(2017).True.HDTV.720p.Hindi.H264.DD.5.1.-.LatestHDMovies
Description:





Visit Now - http://LatestHDMovies.Org









General
Unique ID                   : 201751638847738964935139035935505310866 (0x97C7F3C73851EE7B07218DF4458AE492)
Complete name               : C:\Users\latest\Downloads\Video\Dil.Jo.Na.KeH.Saka.(2017).True.HDTV.720p.Hindi.H264.DD.5.1.-.LatestHDMovies.mkv
Format                      : Matroska
Format version              : Version 4 / Version 2
File size                   : 1.08 GiB
Duration                    : 2 h 4 min
Overall bit rate            : 1 246 kb/s
Movie name                  : http://LatestHDMovies.Org
Encoded date                : UTC 2018-08-19 14:43:37
Writing application         : mkvmerge v25.0.0 ('Prog Noir') 32-bit
Writing library             : libebml v1.3.6 + libmatroska v1.4.9
Cover                       : Yes
Attachments                 : Cover.jpg

Video
ID                          : 1
Format                      : AVC
Format/Info                 : Advanced Video Codec
Format profile              : [email protected]
Format settings             : CABAC / 4 Ref Frames
Format settings, CABAC      : Yes
Format settings, ReFrames   : 4 frames
Codec ID                    : V_MPEG4/ISO/AVC
Duration                    : 2 h 4 min
Bit rate                    : 1 121 kb/s
Width                       : 1 274 pixels
Height                      : 720 pixels
Display aspect ratio        : 16:9
Frame rate mode             : Constant
Frame rate                  : 25.000 FPS
Color space                 : YUV
Chroma subsampling          : 4:2:0
Bit depth                   : 8 bits
Scan type                   : Progressive
Bits/(Pixel*Frame)          : 0.049
Stream size                 : 991 MiB (89%)
Title                       : http://LatestHDMovies.Org
Writing library             : x264 core 148 r2643 5c65704
Encoding settings           : cabac=1 / ref=1 / deblock=1:0:0 / analyse=0x3:0x3 / me=dia / subme=1 / psy=1 / psy_rd=1.00:0.00 / mixed_ref=0 / me_range=16 / chroma_me=1 / trellis=0 / 8x8dct=1 / cqm=0 / deadzone=21,11 / fast_pskip=1 / chroma_qp_offset=0 / threads=12 / lookahead_threads=2 / sliced_threads=0 / nr=0 / decimate=1 / interlaced=0 / bluray_compat=0 / constrained_intra=0 / bframes=3 / b_pyramid=2 / b_adapt=1 / b_bias=0 / direct=1 / weightb=1 / open_gop=0 / weightp=1 / keyint=250 / keyint_min=25 / scenecut=40 / intra_refresh=0 / rc=abr / mbtree=0 / bitrate=1121 / ratetol=1.0 / qcomp=0.60 / qpmin=0 / qpmax=69 / qpstep=4 / ip_ratio=1.40 / pb_ratio=1.30 / aq=1:1.00
Default                     : Yes
Forced                      : No

Audio
ID                          : 2
Format                      : AAC
Format/Info                 : Advanced Audio Codec
Format profile              : LC
Codec ID                    : A_AAC-2
Duration                    : 2 h 4 min
Bit rate                    : 128 kb/s
Channel(s)                  : 1 channel
Channel positions           : Front: C
Sampling rate               : 44.1 kHz
Frame rate                  : 43.066 FPS (1024 SPF)
Compression mode            : Lossy
Delay relative to video     : -46 ms
Stream size                 : 114 MiB (10%)
Title                       : http://LatestHDMovies.Org
Language                    : Hindi
Default                     : Yes
Forced                      : No


 
 
 
 
 
 
Category:Movies > Bollywood
Lang:Hindi
Total Size:1.08 GB
Info Hash:055aa4793c0e9135d31446fb24548395aadbc4d4
Added By:LatestHDMovies
Date Added:19-08-2018 15:56:40
Views:270
Hits:39

Download Torrent

Ratings:Not Yet Rated (Log in to rate it)


Tracker:
udp://tracker.coppersurfer.tk:6969/announce


File List: 


Comments

No comments still posted

Powered by 10 Hamsters v2-svn -|- Page Generated In 2.015981 secs.
-|- RSS FEED
Theme By: Nikkbu