[Login] or [Signup]
Login
Username:
Password:
[Signup]
[Recover Account]


Poll


You must be logged in to view polls



Torrent Details For "Secret.Superstar.(2017) Hindi 720p Blu-Ray x264.ACC.5.1 - LatestHDMovies"

Secret.Superstar.(2017) Hindi 720p Blu-Ray x264.ACC.5.1 - LatestHDMovies

Download this torrent | Magnet Download
Health:
Seeds: 0
Leechers: 0
Completed:
Last Checked: 11-08-2018 05:00:30
External Torrent
Update Stats
Download Magnet


Poster


iMDB
Imdb Picture Title: Secret Superstar
Year: 2017
Votes: 638
Rating: 8.4/10
Language: Hindi
Country: India
All Genres: Drama, Family, Music
Plot Outline: The film revolves around the life of a child who aspires to be a singer.
Director: Advait Chandan
Writing By: Advait Chandan,
Produced By: Akash Chawla,Aamir Khan,Sujay Kutty,Girish Patel,B. Shrinivas Rao,Kiran Rao,
Music: Amit Trivedi
Cast:
Zaira Wasim as Insia
Meher Vij as Najma / Insia's Mother
Raj Arjun as Farookh Malik / Insia's Father
Tirth Sharma as
Kabir Shaikh as
Farrokh Jaffer as
Aamir Khan as Shakti Kumar
Manuj Sharma as Ranjeet
Mona Ambegaonkar as Sheena Sabhawala
Trailers:
Official 'Secret Superstar' Trailer


Watch-Free-HD     Download

Details
Name:Secret.Superstar.(2017) Hindi 720p Blu-Ray x264.ACC.5.1 - LatestHDMovies
Description:




[[SAMPLE]]
 http://oload.stream/f/R5zfxqq...estHDmovies.Org-.mp4



Quote:

DIRECT DOWNLOAD & WATCH ONLINE!
visit = http://latesthdmovies.org/sec...luray-h-264-acc-5-1/


General
Unique ID                   : 11185742946864355115839037887348013659 (0x86A4BB4E7F7F7563794A08B7644FA5B)
Complete name               : C:\Users\SHAHID\Downloads\Video\Secret.Superstar.(2017) Hindi 720p Blu-Ray x264.ACC.5.1 - LatestHDMovies
Format                      : Matroska
Format version              : Version 4 / Version 2
File size                   : 1.28 GiB
Duration                    : 2 h 30 min
Overall bit rate            : 1 219 kb/s
Movie name                  : http://LatestHDmovies.Org
Encoded date                : UTC 2018-08-10 22:09:09
Writing application         : mkvmerge v25.0.0 ('Prog Noir') 32-bit
Writing library             : libebml v1.3.6 + libmatroska v1.4.9
Cover                       : Yes
Attachments                 : Cover.jpg

Video
ID                          : 1
Format                      : AVC
Format/Info                 : Advanced Video Codec
Format profile              : [email protected]
Format settings             : CABAC / 5 Ref Frames
Format settings, CABAC      : Yes
Format settings, ReFrames   : 5 frames
Codec ID                    : V_MPEG4/ISO/AVC
Duration                    : 2 h 30 min
Bit rate                    : 1 088 kb/s
Width                       : 1 280 pixels
Height                      : 544 pixels
Display aspect ratio        : 2.35:1
Frame rate mode             : Constant
Frame rate                  : 24.000 FPS
Color space                 : YUV
Chroma subsampling          : 4:2:0
Bit depth                   : 8 bits
Scan type                   : Progressive
Bits/(Pixel*Frame)          : 0.065
Stream size                 : 1.14 GiB (89%)
Title                       : http://LatestHDmovies.Org
Writing library             : x264 core 148 r2643 5c65704
Encoding settings           : cabac=1 / ref=5 / deblock=1:0:0 / analyse=0x3:0x113 / me=hex / subme=7 / psy=1 / psy_rd=1.00:0.00 / mixed_ref=1 / me_range=16 / chroma_me=1 / trellis=1 / 8x8dct=1 / cqm=0 / deadzone=21,11 / fast_pskip=1 / chroma_qp_offset=-2 / threads=8 / lookahead_threads=8 / sliced_threads=1 / slices=8 / nr=0 / decimate=1 / interlaced=0 / bluray_compat=0 / constrained_intra=0 / bframes=0 / weightp=2 / keyint=250 / keyint_min=24 / scenecut=40 / intra_refresh=0 / rc=abr / mbtree=0 / bitrate=1088 / ratetol=1.0 / qcomp=0.60 / qpmin=0 / qpmax=69 / qpstep=4 / ip_ratio=1.40 / aq=1:1.00
Default                     : Yes
Forced                      : No

Audio
ID                          : 2
Format                      : AAC
Format/Info                 : Advanced Audio Codec
Format profile              : LC
Codec ID                    : A_AAC-2
Duration                    : 2 h 30 min
Bit rate                    : 128 kb/s
Channel(s)                  : 2 channels
Channel positions           : Front: L R
Sampling rate               : 48.0 kHz
Frame rate                  : 46.875 FPS (1024 SPF)
Compression mode            : Lossy
Delay relative to video     : -43 ms
Stream size                 : 137 MiB (11%)
Title                       : http://LatestHDmovies.Org
Language                    : Hindi
Default                     : Yes
Forced                      : No


 
                       
Category:Movies > Bollywood
Lang:Hindi
Total Size:1.28 GB
Info Hash:527a0a94de53509b9a86371a4575a4780e66db49
Added By:LatestHDMovies
Date Added:11-08-2018 05:00:30
Views:210
Hits:29

Download Torrent

Ratings:Not Yet Rated (Log in to rate it)


Tracker:
udp://tracker.coppersurfer.tk:6969/announce


File List: 


Comments

<< Previous      Next >>
1 - 1

[Report] Posted: 11-08-2018 at 07:12:10
SkTaRa
TaRa Digital Encoder for x264


Uploaded: 0.00 B
Downloaded: 0.00 B
Ratio: ---

Bhai...yea H264 Encoder..Nahi hai.. x264 ki Encoder hai...plz visit now ok.
MeGUI Best Encoding x264 & AAC Audio settings Eeasily
 http://www.youtube.com/watch?v=SodaFUPV98U

1 - 1
<< Previous      Next >>


Powered by 10 Hamsters v2-svn -|- Page Generated In 3.127194 secs.
-|- RSS FEED
Theme By: Nikkbu