[Login] or [Signup]
Login
Username:
Password:
[Signup]
[Recover Account]


Poll


You must be logged in to view polls



Torrent Details For "Poseidon (2006) 1080p Bluray x264 {Dual Audio} [Hindi Org DD 2.0 English DD 5.1] [email protected]"

Poseidon (2006) 1080p Bluray x264 {Dual Audio} [Hindi Org DD 2.0 English DD 5.1] [email protected]

Download this torrent | Magnet Download
Health:
Seeds: 138
Leechers: 160
Completed: 797 
Last Checked: 12-08-2018 10:00:41
External Torrent
Update Stats
Download Magnet


Poster


Watch-Free-HD     Download

Details
Name:Poseidon (2006) 1080p Bluray x264 {Dual Audio} [Hindi Org DD 2.0 English DD 5.1] [email protected]
Description:
Poseidon (2006) 1080p Bluray x264 {Dual Audio} [Hindi Org DD 2.0 English DD 5.1] [email protected]

 

Org Untouched VCD Hindi Audio By~Hammer~

Never Compromise In Quality

 


Format                                   : Matroska
Format version                           : Version 4 / Version 2
File size                                : 3.85 GiB
Duration                                 : 1 h 38 min
Overall bit rate                         : 5 607 kb/s
Movie name                               : Poseidon (2006) 1080p Bluray x264 {Dual Audio} [Hindi Org DD 2.0 English DD 5.1] [email protected]
Bit rate                                 : 5 000 kb/s
Width                                    : 1 920 pixels
Height                                   : 800 pixels
Display aspect ratio                     : 2.40:1
Frame rate mode                          : Constant
Frame rate                               : 23.976 (24000/1001) FPS
Title                                    : [email protected]
Language                                 : English
Default                                  : Yes
Forced                                   : No

Audio #1
Format                                   : AC-3
Format/Info                              : Audio Coding 3
Codec ID                                 : A_AC3
Duration                                 : 1 h 38 min
Bit rate mode                            : Constant
Bit rate                                 : 224 kb/s
Channel(s)                               : 2 channels
Channel positions                        : Front: L R
Sampling rate                            : 48.0 kHz
Frame rate                               : 31.250 FPS (1536 SPF)
Bit depth                                : 16 bits
Compression mode                         : Lossy
Stream size                              : 157 MiB (4%)
Title                                    : Hindi Org VCD DD 2.0 @224 kbps By~Hammer~
Language                                 : Hindi
Default                                  : Yes
Forced                                   : Yes

Audio #2
Format                                   : AC-3
Format/Info                              : Audio Coding 3
Codec ID                                 : A_AC3
Duration                                 : 1 h 38 min
Bit rate mode                            : Constant
Bit rate                                 : 384 kb/s
Channel(s)                               : 6 channels
Channel positions                        : Front: L C R, Side: L R, LFE
Sampling rate                            : 48.0 kHz
Frame rate                               : 31.250 FPS (1536 SPF)
Bit depth                                : 16 bits
Compression mode                         : Lossy
Stream size                              : 270 MiB (7%)
Title                                    : Eng Org DD 5.1 @384 kbps By~Hammer~
Language                                 : English
Default                                  : No
Forced                                   : No


 
 
 
 
 

Enjoy & Keep Seeding

 
Category:Movies > Hollywood Dub
Lang:Hindi
Total Size:3.85 GB
Info Hash:38ba5332a5437e7ec317c535901c5e720c229af9
Added By:Hon3y
Date Added:10-08-2018 16:20:53
Views:505
Hits:82

Download Torrent

Ratings:Not Yet Rated (Log in to rate it)


Tracker:
udp://tracker.coppersurfer.tk:6969/announce


File List: 


Comments

No comments still posted

Powered by 10 Hamsters v2-svn -|- Page Generated In 1.281892 secs.
-|- RSS FEED
Theme By: Nikkbu