[Login] or [Signup]
Login
Username:
Password:
[Signup]
[Recover Account]


Poll


You must be logged in to view polls



Torrent Details For "The Most Dangerous Game 2017 1080p BluRay x264 DTS [MW]"

The Most Dangerous Game 2017 1080p BluRay x264 DTS [MW]

Download this torrent | Magnet Download
Health:
Seeds: 83
Leechers: 214
Completed: 127 
Last Checked: 10-08-2018 11:08:32
External Torrent
Update Stats
Download Magnet


Poster
No poster


Watch-Free-HD     Download

Details
Name:The Most Dangerous Game 2017 1080p BluRay x264 DTS [MW]
Description:

 


General
Format                                   : Matroska
Format version                           : Version 4 / Version 2
File size                                : 2.32 GiB
Duration                                 : 1 h 29 min
Overall bit rate                         : 3 695 kb/s

Video
ID                                       : 1
Format                                   : AVC
Format/Info                              : Advanced Video Codec
Format profile                           : [email protected]
Format settings                          : CABAC / 4 Ref Frames
Format settings, CABAC                   : Yes
Format settings, RefFrames               : 4 frames
Codec ID                                 : V_MPEG4/ISO/AVC
Duration                                 : 1 h 29 min
Bit rate                                 : 3 000 kb/s
Width                                    : 1 920 pixels
Height                                   : 1 080 pixels
Display aspect ratio                     : 16:9
Frame rate mode                          : Constant
Frame rate                               : 23.976 (24000/1001) FPS
Color space                              : YUV
Chroma subsampling                       : 4:2:0
Bit depth                                : 8 bits
Scan type                                : Progressive
Bits/(Pixel*Frame)                       : 0.060
Stream size                              : 1.84 GiB (79%)
Writing library                          : x264 core 155 r2901 7d0ff22
Default                                  : Yes
Forced                                   : No

Audio
ID                                       : 2
Format                                   : DTS
Format/Info                              : Digital Theater Systems
Codec ID                                 : A_DTS
Duration                                 : 1 h 29 min
Bit rate mode                            : Constant
Bit rate                                 : 756 kb/s
Channel(s)                               : 2 channels
Channel positions                        : Front: L R
Sampling rate                            : 48.0 kHz
Frame rate                               : 93.750 FPS (512 SPF)
Bit depth                                : 16 bits
Compression mode                         : Lossy
Stream size                              : 486 MiB (20%)
Language                                 : English
Default                                  : Yes
Forced                                   : No

Menu
00:00:00.000                             : en:00:00:00.000
00:02:42.996                             : en:00:02:42.913
00:12:32.126                             : en:00:12:32.001
00:22:30.432                             : en:00:22:30.349
00:28:18.488                             : en:00:28:18.488
00:34:10.298                             : en:00:34:10.215
00:40:46.819                             : en:00:40:46.778
00:49:34.805                             : en:00:49:34.805
00:57:35.243                             : en:00:57:35.202
01:06:36.284                             : en:01:06:36.284
01:16:55.694                             : en:01:16:55.611
01:27:37.210                             : en:01:27:37.210



 http://pichub.site/image/RTCAV
 http://pichub.site/image/RThlT
 http://pichub.site/image/RTt4N
 http://pichub.site/image/RTzCD
 http://pichub.site/image/RT8LZ
 http://pichub.site/image/RTyI0

Category:Movies > 1080P Bluray
Lang:English  English
Total Size:2.32 GB
Info Hash:7351e5bb7e9011f13a16fd68f7782eab5e9dac05
Added By:Freaky
Date Added:10-08-2018 11:08:15
Views:205
Hits:12

Download Torrent

Ratings:Not Yet Rated (Log in to rate it)


Tracker:
udp://tracker.coppersurfer.tk:6969/announce


File List: 


Comments

No comments still posted

Powered by 10 Hamsters v2-svn -|- Page Generated In 1.006297 secs.
-|- RSS FEED
Theme By: Nikkbu