[Login] or [Signup]
Login
Username:
Password:
[Signup]
[Recover Account]


Poll


You must be logged in to view polls



Torrent Details For "Blackmark 2017 1080p WEB-DL DD 5.1 x264 [MW]"

Blackmark 2017 1080p WEB-DL DD 5.1 x264 [MW]

Download this torrent | Magnet Download
Health:
Seeds: 141
Leechers: 38
Completed: 84 
Last Checked: 09-08-2018 13:28:06
External Torrent
Update Stats
Download Magnet


Poster
No poster


Watch-Free-HD     Download

Details
Name:Blackmark 2017 1080p WEB-DL DD 5.1 x264 [MW]
Description:

 


General
Format                                   : Matroska
Format version                           : Version 4 / Version 2
File size                                : 1.73 GiB
Duration                                 : 1 h 34 min
Overall bit rate                         : 2 632 kb/s

Video
ID                                       : 1
Format                                   : AVC
Format/Info                              : Advanced Video Codec
Format profile                           : [email protected]
Format settings                          : CABAC / 4 Ref Frames
Format settings, CABAC                   : Yes
Format settings, RefFrames               : 4 frames
Codec ID                                 : V_MPEG4/ISO/AVC
Duration                                 : 1 h 34 min
Bit rate                                 : 2 300 kb/s
Width                                    : 1 914 pixels
Height                                   : 816 pixels
Display aspect ratio                     : 2.35:1
Frame rate mode                          : Constant
Frame rate                               : 23.976 (24000/1001) FPS
Color space                              : YUV
Chroma subsampling                       : 4:2:0
Bit depth                                : 8 bits
Scan type                                : Progressive
Bits/(Pixel*Frame)                       : 0.061
Stream size                              : 1.48 GiB (85%)
Writing library                          : x264 core 155 r2901 7d0ff22
Default                                  : Yes
Forced                                   : No

Audio
ID                                       : 2
Format                                   : AC-3
Format/Info                              : Audio Coding 3
Codec ID                                 : A_AC3
Duration                                 : 1 h 34 min
Bit rate mode                            : Constant
Bit rate                                 : 384 kb/s
Channel(s)                               : 6 channels
Channel positions                        : Front: L C R, Side: L R, LFE
Sampling rate                            : 48.0 kHz
Frame rate                               : 31.250 FPS (1536 SPF)
Bit depth                                : 16 bits
Compression mode                         : Lossy
Stream size                              : 259 MiB (15%)
Language                                 : English
Service kind                             : Complete Main
Default                                  : Yes
Forced                                   : No

Text
ID                                       : 3
Format                                   : UTF-8
Codec ID                                 : S_TEXT/UTF8
Codec ID/Info                            : UTF-8 Plain Text
Duration                                 : 1 h 31 min
Bit rate                                 : 50 b/s
Count of elements                        : 1126
Stream size                              : 33.8 KiB (0%)
Language                                 : English
Default                                  : Yes
Forced                                   : No



 http://pichub.site/image/RzO7T
 http://pichub.site/image/RzEOZ
 http://pichub.site/image/RzwoJ
 http://pichub.site/image/RzyW5
 http://pichub.site/image/RziNj
 http://pichub.site/image/RzABQ

Category:Movies > HDRips
Lang:English  English
Total Size:1.73 GB
Info Hash:7135b5691f68147de98dc8cf1b21d1671eff817f
Added By:Freaky
Date Added:09-08-2018 13:27:40
Views:131
Hits:3

Download Torrent

Ratings:Not Yet Rated (Log in to rate it)


Tracker:
udp://tracker.coppersurfer.tk:6969/announce


File List: 


Comments

No comments still posted

Powered by 10 Hamsters v2-svn -|- Page Generated In 0.635164 secs.
-|- RSS FEED
Theme By: Nikkbu