[Login] or [Signup]
Login
Username:
Password:
[Signup]
[Recover Account]


Poll


You must be logged in to view polls



Torrent Details For "Deadpool 2 2018 Super Duper Cut UNRATED 1080p BluRay AC3 5.1 x264 [MW]"

Deadpool 2 2018 Super Duper Cut UNRATED 1080p BluRay AC3 5.1 x264 [MW]

Download this torrent | Magnet Download
Health:
Seeds: 360
Leechers: 646
Completed: 869 
Last Checked: 09-08-2018 13:01:37
External Torrent
Update Stats
Download Magnet


Poster
No poster


Watch-Free-HD     Download

Details
Name:Deadpool 2 2018 Super Duper Cut UNRATED 1080p BluRay AC3 5.1 x264 [MW]
Description:

 


General
Format                                   : Matroska
Format version                           : Version 4 / Version 2
File size                                : 3.39 GiB
Duration                                 : 2 h 13 min
Overall bit rate                         : 3 626 kb/s

Video
ID                                       : 1
Format                                   : AVC
Format/Info                              : Advanced Video Codec
Format profile                           : [email protected]
Format settings                          : CABAC / 4 Ref Frames
Format settings, CABAC                   : Yes
Format settings, RefFrames               : 4 frames
Codec ID                                 : V_MPEG4/ISO/AVC
Duration                                 : 2 h 13 min
Bit rate                                 : 3 200 kb/s
Width                                    : 1 920 pixels
Height                                   : 804 pixels
Display aspect ratio                     : 2.40:1
Frame rate mode                          : Constant
Frame rate                               : 23.976 (24000/1001) FPS
Color space                              : YUV
Chroma subsampling                       : 4:2:0
Bit depth                                : 8 bits
Scan type                                : Progressive
Bits/(Pixel*Frame)                       : 0.086
Stream size                              : 2.97 GiB (88%)
Writing library                          : x264 core 155 r2901 7d0ff22
Default                                  : Yes
Forced                                   : No

Audio
ID                                       : 3
Format                                   : AC-3
Format/Info                              : Audio Coding 3
Codec ID                                 : A_AC3
Duration                                 : 2 h 13 min
Bit rate mode                            : Constant
Bit rate                                 : 448 kb/s
Channel(s)                               : 6 channels
Channel positions                        : Front: L C R, Side: L R, LFE
Sampling rate                            : 48.0 kHz
Frame rate                               : 31.250 FPS (1536 SPF)
Bit depth                                : 16 bits
Compression mode                         : Lossy
Stream size                              : 429 MiB (12%)
Language                                 : English
Service kind                             : Complete Main
Default                                  : Yes
Forced                                   : No

Text
ID                                       : 2
Format                                   : UTF-8
Codec ID                                 : S_TEXT/UTF8
Codec ID/Info                            : UTF-8 Plain Text
Duration                                 : 2 h 11 min
Bit rate                                 : 64 b/s
Count of elements                        : 2131
Stream size                              : 61.9 KiB (0%)
Default                                  : Yes
Forced                                   : No


 http://pichub.site/image/RaX75
 http://pichub.site/image/Ra6WJ
 http://pichub.site/image/RanNh
 http://pichub.site/image/RasZj
 http://pichub.site/image/RaZOr
 http://pichub.site/image/Ra1Bk

Category:Movies > 1080P Bluray
Lang:English  English
Total Size:3.39 GB
Info Hash:9d5dd5e6d1df6c3903d0a601030bd828ea10d910
Added By:Freaky
Date Added:09-08-2018 13:01:26
Views:226
Hits:27

Download Torrent

Ratings:Not Yet Rated (Log in to rate it)


Tracker:
udp://tracker.coppersurfer.tk:6969/announce


File List: 


Comments

No comments still posted

Powered by 10 Hamsters v2-svn -|- Page Generated In 0.152136 secs.
-|- RSS FEED
Theme By: Nikkbu