[Login] or [Signup]
Login
Username:
Password:
[Signup]
[Recover Account]


Poll


You must be logged in to view polls



Torrent Details For "Deadpool 2 2018 720p WEB-DL x264 ESub [MW]"

Deadpool 2 2018 720p WEB-DL x264 ESub [MW]

Download this torrent | Magnet Download
Health:
Seeds: 295
Leechers: 584
Completed: 351 
Last Checked: 07-08-2018 18:30:14
External Torrent
Update Stats
Download Magnet


Poster
No poster


Watch-Free-HD     Download

Details
Name:Deadpool 2 2018 720p WEB-DL x264 ESub [MW]
Description:

 


General
Format                                   : Matroska
Format version                           : Version 4 / Version 2
File size                                : 1.07 GiB
Duration                                 : 1 h 59 min
Overall bit rate                         : 1 282 kb/s

Video
ID                                       : 1
Format                                   : AVC
Format/Info                              : Advanced Video Codec
Format profile                           : [email protected]
Format settings                          : CABAC / 4 Ref Frames
Format settings, CABAC                   : Yes
Format settings, RefFrames               : 4 frames
Codec ID                                 : V_MPEG4/ISO/AVC
Duration                                 : 1 h 59 min
Bit rate                                 : 1 200 kb/s
Width                                    : 1 280 pixels
Height                                   : 536 pixels
Display aspect ratio                     : 2.40:1
Frame rate mode                          : Constant
Frame rate                               : 23.976 (24000/1001) FPS
Color space                              : YUV
Chroma subsampling                       : 4:2:0
Bit depth                                : 8 bits
Scan type                                : Progressive
Bits/(Pixel*Frame)                       : 0.073
Stream size                              : 1 011 MiB (92%)
Writing library                          : x264 core 155 r2901 7d0ff22
Default                                  : Yes
Forced                                   : No

Audio
ID                                       : 2
Format                                   : AAC
Format/Info                              : Advanced Audio Codec
Format profile                           : LC
Codec ID                                 : A_AAC-2
Duration                                 : 1 h 59 min
Bit rate                                 : 96.0 kb/s
Channel(s)                               : 2 channels
Channel positions                        : Front: L R
Sampling rate                            : 48.0 kHz
Frame rate                               : 46.875 FPS (1024 SPF)
Compression mode                         : Lossy
Stream size                              : 82.2 MiB (8%)
Language                                 : English
Default                                  : Yes
Forced                                   : No

Text
ID                                       : 3
Format                                   : UTF-8
Codec ID                                 : S_TEXT/UTF8
Codec ID/Info                            : UTF-8 Plain Text
Duration                                 : 1 h 58 min
Bit rate                                 : 90 b/s
Count of elements                        : 2152
Stream size                              : 77.9 KiB (0%)
Language                                 : English
Default                                  : Yes
Forced                                   : No


 http://pichub.site/image/OQiWt
 http://pichub.site/image/OQzV4
 http://pichub.site/image/OQ8Np
 http://pichub.site/image/OQA1y
 http://pichub.site/image/OQKOb
 http://pichub.site/image/OQgB0

Category:Movies > HDRips
Lang:English  English
Total Size:1.07 GB
Info Hash:999dd4748e6299fb7dd0c77f21ff9432f7f6de3e
Added By:Freaky
Date Added:07-08-2018 18:30:05
Views:131
Hits:4

Download Torrent

Ratings:Not Yet Rated (Log in to rate it)


Tracker:
udp://tracker.coppersurfer.tk:6969/announce


File List: 


Comments

No comments still posted

Powered by 10 Hamsters v2-svn -|- Page Generated In 0.104181 secs.
-|- RSS FEED
Theme By: Nikkbu