[Login] or [Signup]
Login
Username:
Password:
[Signup]
[Recover Account]


Poll


You must be logged in to view polls



Torrent Details For "The Most Dangerous Game 2017 720p BRRip x264 [MW]"

The Most Dangerous Game 2017 720p BRRip x264 [MW]

Download this torrent | Magnet Download
Health:
Seeds: 93
Leechers: 220
Completed: 129 
Last Checked: 07-08-2018 16:01:21
External Torrent
Update Stats
Download Magnet


Poster
No poster


Watch-Free-HD     Download

Details
Name:The Most Dangerous Game 2017 720p BRRip x264 [MW]
Description:

 

General
Format                                   : Matroska
Format version                           : Version 4 / Version 2
File size                                : 968 MiB
Duration                                 : 1 h 29 min
Overall bit rate                         : 1 507 kb/s

Video
ID                                       : 1
Format                                   : AVC
Format/Info                              : Advanced Video Codec
Format profile                           : [email protected]
Format settings                          : CABAC / 4 Ref Frames
Format settings, CABAC                   : Yes
Format settings, RefFrames               : 4 frames
Codec ID                                 : V_MPEG4/ISO/AVC
Duration                                 : 1 h 29 min
Bit rate                                 : 1 400 kb/s
Width                                    : 1 280 pixels
Height                                   : 720 pixels
Display aspect ratio                     : 16:9
Frame rate mode                          : Constant
Frame rate                               : 23.976 (24000/1001) FPS
Color space                              : YUV
Chroma subsampling                       : 4:2:0
Bit depth                                : 8 bits
Scan type                                : Progressive
Bits/(Pixel*Frame)                       : 0.063
Stream size                              : 885 MiB (91%)
Writing library                          : x264 core 155 r2901 7d0ff22
Default                                  : Yes
Forced                                   : No

Audio
ID                                       : 2
Format                                   : AAC
Format/Info                              : Advanced Audio Codec
Format profile                           : LC
Codec ID                                 : A_AAC-2
Duration                                 : 1 h 29 min
Bit rate                                 : 128 kb/s
Channel(s)                               : 2 channels
Channel positions                        : Front: L R
Sampling rate                            : 48.0 kHz
Frame rate                               : 46.875 FPS (1024 SPF)
Compression mode                         : Lossy
Stream size                              : 82.4 MiB (9%)
Language                                 : English
Default                                  : Yes
Forced                                   : No

Menu
00:00:00.000                             : en:00:00:00.000
00:02:42.996                             : en:00:02:42.913
00:12:32.126                             : en:00:12:32.001
00:22:30.432                             : en:00:22:30.349
00:28:18.488                             : en:00:28:18.488
00:34:10.298                             : en:00:34:10.215
00:40:46.819                             : en:00:40:46.778
00:49:34.805                             : en:00:49:34.805
00:57:35.243                             : en:00:57:35.202
01:06:36.284                             : en:01:06:36.284
01:16:55.694                             : en:01:16:55.611
01:27:37.210                             : en:01:27:37.210


 http://pichub.site/image/OQENd
 http://pichub.site/image/OQdZ9
 http://pichub.site/image/OQVOu
 http://pichub.site/image/OQcBR
 http://pichub.site/image/OQk6s
 http://pichub.site/image/OQChY

Category:Movies > 720P Bluray
Lang:English  English
Total Size:968.47 MB
Info Hash:65c1494bfb9c6f5642902c879953631eea62f46a
Added By:Freaky
Date Added:07-08-2018 16:00:31
Views:334
Hits:28

Download Torrent

Ratings:Not Yet Rated (Log in to rate it)


Tracker:
udp://tracker.coppersurfer.tk:6969/announce


File List: 


Comments

No comments still posted

Powered by 10 Hamsters v2-svn -|- Page Generated In 0.781821 secs.
-|- RSS FEED
Theme By: Nikkbu