[Login] or [Signup]
Login
Username:
Password:
[Signup]
[Recover Account]


Poll


You must be logged in to view polls



Torrent Details For "Pride and Prejudice (2005) 720p BluRay x264 Dual Audio [Hindi 5.1 - English 2.0] ESubs @ KatMas..."

Pride and Prejudice (2005) 720p BluRay x264 Dual Audio [Hindi 5.1 - English 2.0] ESubs @ KatMas...

Download this torrent | Magnet Download
Health:
Seeds: 130
Leechers: 207
Completed: 262 
Last Checked: 05-08-2018 04:57:50
External Torrent
Update Stats
Download Magnet


Poster


iMDB
Imdb Picture Title: Pride & Prejudice
Year: 2005
Runtime: 129 minutes
Votes: 206788
Rating: 7.8/10
Language: English
Country: France, UK, USA
All Genres: Drama, Romance
Plot Outline: Sparks fly when spirited Elizabeth Bennet meets single, rich, and proud Mr. Darcy. But Mr. Darcy reluctantly finds himself falling in love with a woman beneath his class. Can each overcome their own pride and prejudice?
Tagline: This holiday season, experience the greatest love story of all time.
Director: Joe Wright
Writing By: Jane Austen,Deborah Moggach,Emma Thompson,
Produced By: Tim Bevan,Liza Chasin,Eric Fellner,Jane Frazer,Debra Hayward,Paul Webster,
Music: Dario Marianelli
Plot:

The protagonist Elizabeth Bennett is a witty, sarcastic, somewhat stubborn young lady who really has an opinion about quite a lot including why she would not marry simply because of it is expected of her. Mr. Guy Darcy is a shy, rich, man who defiantly believes there is such a thing as superior birth.

- Written by Gaëlle

The story is based on Jane Austen's novel about five sisters - Jane, Elizabeth, Mary, Kitty and Lydia Bennet - in Georgian England. Their lives are turned upside down when a wealthy young man (Mr. Bingley) and his best friend (Mr. Darcy) arrive in their neighborhood.

- Written by Marcy Gomez

Pride and Prejudice is a humorous story of love and life among English gentility during the Georgian era. Mr Bennet is an English gentleman living in Hartfordshire with his overbearing wife. The Bennets 5 daughters; the beautiful Jane, the clever Elizabeth, the bookish Mary, the immature Kitty and the wild Lydia. Unfortunately for the Bennets, if Mr Bennet dies their house will be inherited by a distant cousin whom they have never met, so the family's future happiness and security is dependent on the daughters making good marriages. Life is uneventful until the arrival in the neighbourhood of the rich gentleman Mr Bingley, who rents a large house so he can spend the summer in the country. Mr Bingley brings with him his sister and the dashing (and richer) but proud Mr Darcy. Love is soon in the air for one of the Bennet sisters, while another may have jumped to a hasty prejudgment. For the Bennet sisters many trials and tribulations stand between them and their happiness, including class, gossip and scandal.

- Written by Dom

This tale of love and values unfolds in the class-conscious England of the late 18th century. The five Bennet sisters - including strong-willed Elizabeth and young Lydia - have been raised by their mother with one purpose in life: finding a husband. When a wealthy bachelor takes up residence in a nearby mansion, the Bennets are abuzz. Amongst the man's sophisticated circle of friends, surely there will be no shortage of suitors for the Bennet sisters. But when Elizabeth meets up with the handsome and - it would seem - snobbish Mr. Darcy, the battle of the sexes is joined.

- Written by focus features

In Georgian England, Mrs. Bennet raises her five daughters - Jane, Elizabeth, Mary, Kitty and Lydia with the purpose of getting married with a rich husband that can support the family. They are not from the upper class, and their house in Hertfordshire will be inherited by a distant cousin if Mr. Bennet dies. When the wealthy bachelor Mr. Bingley and his best friend Mr. Darcy arrive in town to spend the summer in a mansion nearby their property, the shy and beautiful Jane falls in love for Mr. Bingley, and Lizzie finds Mr. Darcy a snobbish and proud man, and she swears to loathe him forever. This is the beginning of their wonderful love story.

- Written by Claudio Carvalho, Rio de Janeiro, Brazil

Sparks fly when spirited Elizabeth Bennet meets single, rich, and proud Mr. Darcy. But Mr. Darcy reluctantly finds himself falling in love with a woman beneath his class. Can each overcome their own pride and prejudice?

- Written by Rosetherese33
Cast:
Keira Knightley as Elizabeth Bennet
Talulah Riley as Mary Bennet
Rosamund Pike as Jane Bennet
Jena Malone as Lydia Bennet
Carey Mulligan as Kitty Bennet
Donald Sutherland as Mr. Bennet
Brenda Blethyn as Mrs. Bennet
Claudie Blakley as Charlotte Lucas
Sylvester Morand as Sir William Lucas
Simon Woods as Mr. Bingley


Watch-Free-HD     Download

Details
Name:Pride and Prejudice (2005) 720p BluRay x264 Dual Audio [Hindi 5.1 - English 2.0] ESubs @ KatMas...
Description:
[code][FORMAT]:…………………….[ Matroska
[ENCODER]:…………..[ KatMaster
[THANKS TO]:…………………..[ Hammer[/code]

Movie Info:

IMDB: http://www.imdb.com/title/tt0414387/

Genres: Drama, Romance
Director: Joe Wright
Writers: Jane Austen (novel), Deborah Moggach
Stars: Keira Knightley, Matthew Macfadyen, Brenda Blethyn
Language: Hindi (5.1) + English (2.0)

Video
ID                                       : 1
Format                                   : AVC
Format/Info                              : Advanced Video Codec
Format profile                           : [email protected]
Format settings                          : CABAC / 10 Ref Frames
Format settings, CABAC                   : Yes
Format settings, RefFrames               : 10 frames
Codec ID                                 : V_MPEG4/ISO/AVC
Duration                                 : 2 h 8 min
Bit rate                                 : 834 kb/s
Width                                    : 1 280 pixels
Height                                   : 544 pixels
Display aspect ratio                     : 2.35:1
Frame rate mode                          : Constant
Frame rate                               : 23.976 (24000/1001) FPS
Color space                              : YUV
Chroma subsampling                       : 4:2:0
Bit depth                                : 8 bits
Scan type                                : Progressive
Bits/(Pixel*Frame)                       : 0.050
Stream size                              : 765 MiB (64%)
Title                                    : N/A
Writing library                          : x264 core 129 r2245 bc13772
Encoding settings                        : cabac=1 / ref=10 / deblock=1:0:0 / analyse=0x3:0x133 / me=umh / subme=9 / psy=1 / psy_rd=1.00:0.00 / mixed_ref=1 / me_range=16 / chroma_me=1 / trellis=2 / 8x8dct=1 / cqm=0 / deadzone=21,11 / fast_pskip=1 / chroma_qp_offset=-2 / threads=12 / lookahead_threads=2 / sliced_threads=0 / nr=0 / decimate=1 / interlaced=0 / bluray_compat=0 / constrained_intra=0 / bframes=8 / b_pyramid=2 / b_adapt=2 / b_bias=0 / direct=3 / weightb=1 / open_gop=0 / weightp=2 / keyint=240 / keyint_min=23 / scenecut=40 / intra_refresh=0 / rc_lookahead=60 / rc=2pass / mbtree=1 / bitrate=834 / ratetol=1.0 / qcomp=0.60 / qpmin=10 / qpmax=51 / qpstep=4 / cplxblur=20.0 / qblur=0.5 / ip_ratio=1.40 / aq=1:1.00
Default                                  : Yes
Forced                                   : No

Audio #1
ID                                       : 2
Format                                   : AC-3
Format/Info                              : Audio Coding 3
Codec ID                                 : A_AC3
Duration                                 : 2 h 6 min
Bit rate mode                            : Constant
Bit rate                                 : 384 kb/s
Channel(s)                               : 6 channels
Channel positions                        : Front: L C R, Side: L R, LFE
Sampling rate                            : 48.0 kHz
Frame rate                               : 31.250 FPS (1536 SPF)
Bit depth                                : 16 bits
Compression mode                         : Lossy
Delay relative to video                  : -105 ms
Stream size                              : 347 MiB (29%)
Title                                    : N/A
Language                                 : Hindi
Service kind                             : Complete Main
Default                                  : Yes
Forced                                   : Yes

Audio #2
ID                                       : 3
Format                                   : AAC
Format/Info                              : Advanced Audio Codec
Format profile                           : LC
Codec ID                                 : A_AAC-2
Duration                                 : 2 h 6 min
Bit rate                                 : 92.0 kb/s
Channel(s)                               : 2 channels
Channel positions                        : Front: L R
Sampling rate                            : 48.0 kHz
Frame rate                               : 46.875 FPS (1024 SPF)
Compression mode                         : Lossy
Delay relative to video                  : -125 ms
Stream size                              : 82.9 MiB (7%)
Title                                    : N/A
Language                                 : English
Default                                  : No
Forced                                   : No

Text
ID                                       : 4
Format                                   : UTF-8
Codec ID                                 : S_TEXT/UTF8
Codec ID/Info                            : UTF-8 Plain Text
Duration                                 : 2 h 1 min
Bit rate                                 : 71 b/s
Count of elements                        : 1799
Stream size                              : 63.4 KiB (0%)
Title                                    : N/A
Language                                 : English
Default                                  : Yes
Forced                                   : Yes


Screenshots:

 
 
 
 
 
Category:Movies > 720P Bluray
Lang:Hindi
Total Size:1.17 GB
Info Hash:8f3900f8dc4bb04206e0357ec751c90b5f43ee27
Added By:KatMaster
Date Added:04-08-2018 16:44:50
Views:503
Hits:76

Download Torrent

Ratings:Not Yet Rated (Log in to rate it)


Tracker:
udp://tracker.coppersurfer.tk:6969/announce


File List: 


Comments

No comments still posted

Powered by 10 Hamsters v2-svn -|- Page Generated In 0.606343 secs.
-|- RSS FEED
Theme By: Nikkbu