[Login] or [Signup]
Login
Username:
Password:
[Signup]
[Recover Account]


Poll


You must be logged in to view polls



Torrent Details For "Woody Woodpecker 2017 720p BRRip x264 ESub [MW]"

Woody Woodpecker 2017 720p BRRip x264 ESub [MW]

Download this torrent | Magnet Download
Health:
Seeds: 82
Leechers: 162
Completed: 109 
Last Checked: 04-08-2018 10:30:48
External Torrent
Update Stats
Download Magnet


Poster
No poster


Watch-Free-HD     Download

Details
Name:Woody Woodpecker 2017 720p BRRip x264 ESub [MW]
Description:

 


General
Format                                   : Matroska
Format version                           : Version 4 / Version 2
File size                                : 880 MiB
Duration                                 : 1 h 32 min
Overall bit rate                         : 1 328 kb/s

Video
ID                                       : 1
Format                                   : AVC
Format/Info                              : Advanced Video Codec
Format profile                           : [email protected]
Format settings                          : CABAC / 4 Ref Frames
Format settings, CABAC                   : Yes
Format settings, RefFrames               : 4 frames
Codec ID                                 : V_MPEG4/ISO/AVC
Duration                                 : 1 h 32 min
Bit rate                                 : 1 200 kb/s
Width                                    : 1 280 pixels
Height                                   : 720 pixels
Display aspect ratio                     : 16:9
Frame rate mode                          : Constant
Frame rate                               : 23.976 (24000/1001) FPS
Color space                              : YUV
Chroma subsampling                       : 4:2:0
Bit depth                                : 8 bits
Scan type                                : Progressive
Bits/(Pixel*Frame)                       : 0.054
Stream size                              : 790 MiB (90%)
Writing library                          : x264 core 155 r2901 7d0ff22
Default                                  : Yes
Forced                                   : No

Audio
ID                                       : 2
Format                                   : AAC
Format/Info                              : Advanced Audio Codec
Format profile                           : HE-AAC / LC
Format settings                          : Explicit
Codec ID                                 : A_AAC-2
Duration                                 : 1 h 32 min
Bit rate                                 : 127 kb/s
Channel(s)                               : 2 channels
Channel positions                        : Front: L R
Sampling rate                            : 48.0 kHz / 24.0 kHz
Frame rate                               : 23.438 FPS (1024 SPF)
Compression mode                         : Lossy
Stream size                              : 84.0 MiB (10%)
Language                                 : English
Default                                  : Yes
Forced                                   : No

Text
ID                                       : 3
Format                                   : VobSub
Muxing mode                              : zlib
Codec ID                                 : S_VOBSUB
Codec ID/Info                            : Picture based subtitle format used on DVDs
Duration                                 : 1 h 29 min
Bit rate                                 : 7 913 b/s
Count of elements                        : 1538
Stream size                              : 5.07 MiB (1%)
Language                                 : English
Default                                  : Yes
Forced                                   : No

Menu
00:00:00.000                             : en:00:00:00.000
00:10:13.446                             : en:00:10:13.404
00:19:50.481                             : en:00:19:50.439
00:30:10.559                             : en:00:30:10.434
00:38:23.968                             : en:00:38:23.927
00:49:53.491                             : en:00:49:53.449
01:00:11.691                             : en:01:00:11.566
01:08:48.916                             : en:01:08:48.875


 http://pichub.site/image/O1vMr
 http://pichub.site/image/O10pQ
 http://pichub.site/image/O1okd
 http://pichub.site/image/O1Lev
 http://pichub.site/image/O1pv9
 http://pichub.site/image/O12Hu

Category:Movies > 720P Bluray
Lang:English  English
Total Size:880.18 MB
Info Hash:c4af30b21b768042012a289eff0171239a2233e8
Added By:Freaky
Date Added:04-08-2018 10:29:53
Views:207
Hits:8

Download Torrent

Ratings:Not Yet Rated (Log in to rate it)


Tracker:
udp://tracker.coppersurfer.tk:6969/announce


File List: 


Comments

No comments still posted

Powered by 10 Hamsters v2-svn -|- Page Generated In 0.789700 secs.
-|- RSS FEED
Theme By: Nikkbu