[Login] or [Signup]
Login
Username:
Password:
[Signup]
[Recover Account]


Poll


You must be logged in to view polls



Torrent Details For "PLOEY You Never Fly Alone 2018 720p BRRip x264 [MW]"

PLOEY You Never Fly Alone 2018 720p BRRip x264 [MW]

Download this torrent | Magnet Download
Health:
Seeds: 105
Leechers: 59
Completed: 2,531 
Last Checked: 23-08-2018 19:25:28
External Torrent
Update Stats
Download Magnet


Poster
No poster


Watch-Free-HD     Download

Details
Name:PLOEY You Never Fly Alone 2018 720p BRRip x264 [MW]
Description:


 

General
Format                                   : Matroska
Format version                           : Version 4 / Version 2
File size                                : 808 MiB
Duration                                 : 1 h 22 min
Overall bit rate                         : 1 368 kb/s

Video
ID                                       : 1
Format                                   : AVC
Format/Info                              : Advanced Video Codec
Format profile                           : [email protected]
Format settings                          : CABAC / 4 Ref Frames
Format settings, CABAC                   : Yes
Format settings, RefFrames               : 4 frames
Codec ID                                 : V_MPEG4/ISO/AVC
Duration                                 : 1 h 22 min
Bit rate                                 : 1 300 kb/s
Width                                    : 1 280 pixels
Height                                   : 534 pixels
Display aspect ratio                     : 2.40:1
Frame rate mode                          : Constant
Frame rate                               : 24.000 FPS
Color space                              : YUV
Chroma subsampling                       : 4:2:0
Bit depth                                : 8 bits
Scan type                                : Progressive
Bits/(Pixel*Frame)                       : 0.079
Stream size                              : 751 MiB (93%)
Writing library                          : x264 core 155 r2901 7d0ff22
Default                                  : Yes
Forced                                   : No

Audio
ID                                       : 2
Format                                   : AAC
Format/Info                              : Advanced Audio Codec
Format profile                           : HE-AAC / LC
Format settings                          : Explicit
Codec ID                                 : A_AAC-2
Duration                                 : 1 h 22 min
Bit rate                                 : 96.0 kb/s
Channel(s)                               : 2 channels
Channel positions                        : Front: L R
Sampling rate                            : 48.0 kHz / 24.0 kHz
Frame rate                               : 23.438 FPS (1024 SPF)
Compression mode                         : Lossy
Stream size                              : 55.9 MiB (7%)
Default                                  : Yes
Forced                                   : No

Menu
00:00:00.000                             : en:1
00:10:50.042                             : en:2
00:26:03.042                             : en:3
00:39:12.000                             : en:4
00:47:35.000                             : en:5
01:00:23.042                             : en:6
01:15:21.042                             : en:7
01:18:38.042                             : en:8


 http://pichub.site/image/OZz7u
 http://pichub.site/image/OZ8NR
 http://pichub.site/image/OZAZs
 http://pichub.site/image/OZKOB
 http://pichub.site/image/OZgBY
 http://pichub.site/image/OZm66

Category:Movies > 720P Bluray
Lang:English  English
Total Size:807.59 MB
Info Hash:c7219880f3f3ce10a488927f0b118144cbe2204e
Added By:Freaky
Date Added:03-08-2018 10:27:48
Views:236
Hits:18

Download Torrent

Ratings:Not Yet Rated (Log in to rate it)


Tracker:
udp://tracker.coppersurfer.tk:6969/announce


File List: 


Comments

No comments still posted

Powered by 10 Hamsters v2-svn -|- Page Generated In 0.573493 secs.
-|- RSS FEED
Theme By: Nikkbu